<?xml version="1.0" standalone="no"?>
<!DOCTYPE svg PUBLIC "-//W3C//DTD SVG 1.1//EN" "http://www.w3.org/Graphics/SVG/1.1/DTD/svg11.dtd">
<svg xmlns="http://www.w3.org/2000/svg">
<metadata>Copyright (C) 2021 by original authors @ fontello.com</metadata>
<defs>
<font id="fontello" horiz-adv-x="1000" >
<font-face font-family="fontello" font-weight="400" font-stretch="normal" units-per-em="1000" ascent="850" descent="-150" />
<missing-glyph horiz-adv-x="1000" />
<glyph glyph-name="application" unicode="&#xe800;" d="M63 850c-33 0-63-26-63-47v-94c0 0 0 0 0 0l0-1v-780c0-54 31-78 63-78h527c31 0 62 24 62 78v211h190c17 0 31 14 31 31v375c0 18-14 32-31 32h-190v131c0 0 0 0 0 1 0 0 0 0 0 0v94c0 21-29 47-62 47z m0-31h527c16 0 29-12 31-17v-78h-590v78c3 5 15 17 32 17z m169-30c-8 0-15-7-15-15 0-9 7-16 15-16h188c8 0 15 7 15 16 0 8-7 15-15 15z m250 0c-8 0-15-7-15-15 0-9 7-16 15-16h32c8 0 15 7 15 16 0 8-7 15-15 15z m-451-96h590v-116h-154c-17 0-32-14-32-32v-375c0-17 15-31 32-31h154v-116h-590z m133-116c-55 0-100-45-100-100 0-49 77-227 85-247 3-6 8-9 15-9 6 0 11 3 14 9 9 20 86 198 86 247 0 55-45 100-100 100z m0-32c38 0 68-30 68-68 0-28-37-125-68-201-32 76-69 173-69 201 0 38 31 68 69 68z m303 0h90v-85c0-4 3-9 6-12 4-3 9-4 13-3l78 15 78-15c1 0 2 0 3 0 4 0 8 1 10 3 4 3 6 8 6 12v85h91l0-375h-375z m122 0h47c0 0 0 0 1 0 0 0 0 0 0 0h83v-66l-63 13c-1 0-2 0-3 0-1 0-2 0-3 0l-62-13z m-433-68c-9 0-16-7-16-16 0-9 7-16 16-16h15c9 0 16 7 16 16 0 9-7 16-16 16z m442-83c-4 0-8-1-11-5l-29-29c-6-6-6-16 0-22 6-6 16-6 22 0l3 3v-58c0-9 7-16 15-16 9 0 16 7 16 16v58l3-3c6-6 16-6 22 0 6 6 6 16 0 22l-30 29c-3 3-7 5-11 5z m112 0c-4 0-8-2-11-5l-29-29c-6-6-6-16 0-22 6-6 16-6 22 0l3 3v-58c0-9 7-16 15-16 9 0 16 7 16 16v58l3-3c6-6 16-6 22 0 6 6 6 16 0 22l-30 29c-3 4-7 5-11 5z m-153-160c-9 0-16-7-16-15 0-9 7-16 16-16h195c9 0 16 7 16 16 0 8-7 15-16 15z m-391-53c-9 0-16-7-16-16 0-9 7-16 16-16h31c9 0 16 7 16 16 0 9-7 16-16 16z m94 0c-9 0-16-7-16-16 0-9 7-16 16-16h31c9 0 16 7 16 16 0 9-7 16-16 16z m93 0c-8 0-15-7-15-16 0-9 7-16 15-16h32c8 0 15 7 15 16 0 9-7 16-15 16z m-322-189h590v-64c0-29-12-47-31-47h-527c-20 0-32 18-32 47z m256-40c-9 0-16-7-16-16 0-8 7-15 16-15h78c9 0 16 7 16 15 0 9-7 16-16 16z" horiz-adv-x="873" />

<glyph glyph-name="camellia" unicode="&#xe801;" d="M944 850c-34 0-75-13-97-21-68-25-132-63-175-106-18-19-34-37-46-55-1-1-3-1-5-2-14-2-28-5-37-3-9 3-19 12-29 21-15 14-33 29-55 29-22 0-39-15-55-29-10-9-20-18-29-21-9-2-23 1-37 3-2 1-4 1-5 2-12 18-28 36-46 55-43 43-107 81-175 106-33 12-112 36-140 8-28-28-4-107 8-140 25-68 63-132 106-175 19-18 37-34 56-46 0-1 0-3 1-5 2-14 5-28 3-37-2-9-12-19-21-29-13-16-29-33-29-55 0-22 16-39 29-55 9-10 19-20 21-29 2-9-1-23-3-37-1-2-1-4-1-5-19-12-37-28-56-46-43-43-81-107-106-175-12-33-36-112-8-140 10-10 25-13 42-13 34 0 76 13 98 21 68 25 132 63 175 106 18 19 34 37 46 56 1 0 3 0 5 1 14 2 28 5 37 3 9-2 19-12 29-21 16-13 33-29 55-29 1 0 3 0 4 0 9 1 18 4 26 9 1 1 2 2 3 2 4 3 7 5 10 8 4 3 8 7 12 10 10 9 20 19 29 21 9 2 23-1 37-3 2-1 4-1 5-1 12-19 28-37 46-56 43-43 107-81 175-106 22-8 64-21 98-21 17 0 33 3 42 13 28 28 4 107-8 140-25 68-63 132-106 175-19 18-37 34-55 46-1 1-1 3-2 5-2 14-5 28-3 37 3 9 12 19 21 29 14 16 29 33 29 55 0 22-15 39-29 55-9 10-18 20-21 29-2 9 1 23 3 37 1 2 1 4 2 6 18 11 36 27 55 45 43 43 81 107 106 175 12 33 36 112 8 140-10 10-25 13-43 13z m1-29c11 0 19-2 21-5 8-7 8-46-14-109-23-63-61-125-100-164-10-11-21-20-32-28 0 1 0 1 0 2-1 5-3 10-5 15-11 18-33 26-53 32-7 2-14 5-20 7l17 18 53-15c1 0 3 0 4 0 6 0 12 4 14 10 2 8-3 16-10 18l-37 10 48 49 47-9c1 0 2 0 3 0 7 0 13 4 15 11 1 8-4 16-12 18l-28 5 41 40c6 6 6 15 0 21-6 6-15 6-21 0l-40-41-5 28c-2 8-10 13-18 12-8-2-13-10-11-18l9-47-49-48-10 37c-2 7-10 12-18 10-7-2-12-10-10-18l15-53-18-17c-2 6-5 13-7 20-6 20-14 42-32 53-6 3-11 5-17 5 8 11 17 22 28 32 39 39 101 77 164 100 39 13 69 19 88 19z m-890 0c19 0 49-6 88-19 63-23 125-61 164-100 11-10 20-21 29-32-6 0-12-2-18-5-18-11-25-33-32-53-2-7-5-14-7-20l-17 17 14 53c2 8-3 16-10 18-8 2-16-3-18-10l-10-37-49 48 9 47c2 8-3 16-11 17-8 2-16-3-17-11l-6-28-40 41c-6 6-15 6-21 0-6-6-6-15 0-21l41-40-28-5c-8-2-13-10-11-18 1-7 7-11 14-11 1 0 2 0 3 0l47 9 48-49-37-10c-7-2-12-10-10-18 2-6 8-10 14-10 2 0 3 0 4 0l53 15 17-18c-6-2-13-5-20-7-20-6-42-14-53-32-2-5-4-10-5-15 0-1 0-1 0-2-11 8-21 17-32 28-39 39-77 101-99 164-23 63-22 102-15 109 2 3 10 5 21 5z m445-137c11 0 23-11 35-22 13-11 26-23 41-27 1 0 2-1 3-1 2 0 5 0 7-1 1 0 2 0 3 0 12-1 25 2 38 5 15 3 31 6 40 1 9-5 14-21 19-36 5-14 10-29 18-40 1-1 2-1 2-2 1-1 2-2 3-2 0-1 1-2 2-3 1-1 3-2 5-3 10-8 24-13 37-17 2-1 4-1 6-2 7-2 13-4 18-7 2-1 3-2 5-3 3-2 6-4 7-7 3-5 3-14 2-23 0-2-1-4-1-6-1-3-1-7-2-11-2-10-4-19-5-29 0-2 0-4 0-6 0-3 0-6 1-9 0-2 0-3 0-4 0-1 1-2 1-3 0-1 0-2 1-2 0-1 0-2 1-3 1-3 2-6 4-8 0-1 1-2 1-3 3-4 5-7 8-10 3-5 8-10 12-15 9-9 18-20 21-29 1-2 1-4 1-6 0-1 0-3-1-4 0-1 0-3-1-4-1-2-1-3-2-5-1-1-2-3-3-4-2-3-4-6-7-9-1-2-3-3-4-5-1-1-3-3-4-4-3-3-6-7-8-10-4-4-7-8-10-12-1-1-1-2-2-3-1-2-3-5-4-8-1-3-2-5-3-8-1-4-2-8-2-13-1-12 2-25 5-38 0-2 1-4 1-6 0-2 1-3 1-5 0-2 1-4 1-6 0-4 1-7 1-11 0 0 0-1 0-2 0-1 0-1 0-2-1-2-1-3-1-4-1-2-1-3-2-4 0-1-1-2-2-3-7-7-21-12-34-16-9-3-18-6-27-10-3-2-5-3-8-5-1 0-2-1-2-2-3-1-5-3-7-5-5-5-8-10-11-15-1-2-2-4-3-6-1-2-2-4-3-6-2-6-4-12-6-18-2-8-5-15-8-22-1-2-2-3-2-5-3-4-6-7-9-9-9-5-25-2-40 1-16 4-32 7-48 4-1 0-2-1-3-1-9-2-18-8-26-14-2-2-3-3-5-4-3-3-6-6-10-9-11-10-23-20-33-22-1 0-1 0-2 0-11 0-23 11-35 22-13 11-26 23-41 27-6 2-11 2-16 2-12 0-23-2-35-5-15-3-31-6-40-1-9 5-14 21-19 36-5 16-11 33-22 45-12 11-29 17-45 22-15 5-31 10-36 19-5 9-2 25 1 40 4 17 7 35 3 51-4 15-16 28-27 41-11 12-22 24-22 35 0 1 0 1 0 2 2 10 12 22 22 33 11 13 23 26 27 41 4 17 1 34-3 51-3 15-6 31-1 40 5 9 21 14 36 19 16 5 33 11 45 23 11 11 17 28 22 44 5 15 10 31 19 36 9 5 25 2 40-1 17-4 35-7 51-3 15 4 28 16 41 27 12 11 24 22 35 22z m0-79c-17 0-30-12-41-22-6-5-13-11-18-13-5-1-15 1-23 3-14 2-29 6-43-1-1 0-2-1-2-1-15-8-20-25-25-39-2-8-5-17-9-21-4-4-13-6-21-9-14-5-30-10-39-24-8-15-4-31-1-46 1-8 3-17 2-23-2-5-7-12-13-18-10-11-22-24-22-41 0-17 12-30 22-41 6-6 11-13 13-18 1-5-1-15-2-23-3-15-7-31 1-45 9-15 25-20 39-25 8-2 17-5 21-9 4-4 7-13 9-21 5-14 10-30 25-39 14-8 30-4 45-1 8 1 18 3 23 2 5-2 12-7 18-13 11-10 24-22 41-22 1 0 2 0 3 0 4 1 8 2 12 3 1 1 2 1 2 1 9 5 17 11 24 18 2 1 3 3 5 4 1 1 3 3 5 4 3 2 6 4 8 5 5 1 15-1 23-2 15-3 31-7 46 1 14 9 19 25 24 39 3 8 5 17 9 21 4 4 13 7 21 9 14 5 31 10 39 25 8 14 5 30 2 45-2 8-4 18-3 23 2 5 8 12 13 18 10 11 22 24 22 41 0 17-12 30-22 41-5 6-11 13-13 18-1 5 1 15 3 23 3 15 6 31-2 46-8 14-25 19-39 24-8 3-17 5-21 9-4 4-6 13-9 21-5 14-10 31-24 39-15 8-31 5-46 2-8-2-18-4-23-3-4 1-8 5-13 9-2 1-3 3-5 4-11 10-24 22-41 22z m0-29c6 0 14-8 21-14 3-2 5-4 7-6 7-6 15-12 23-14 3-1 5-1 7-1 1 0 2 0 3 0 1-1 3-1 4-1 8 1 16 2 23 4 10 2 20 4 25 1 4-2 8-13 11-22 2-7 5-15 8-21 1-2 2-3 3-4 1-3 3-5 6-7 3-4 7-6 11-9 1 0 2-1 4-2 5-2 11-4 17-6 9-3 20-7 22-11 1-1 1-1 1-2 0-1 0-2 1-3 0-3-1-8-2-12 0-3-1-5-1-8-2-10-4-20-3-30 0-2 0-4 1-7 0 0 0-1 1-2 0-1 1-3 1-4 1-1 1-1 1-2 1-1 2-3 2-4 2-2 4-5 6-7 1-1 2-3 3-4 1-2 4-4 6-7 1-1 3-3 5-5 1-2 3-4 4-6 2-2 3-4 4-7 0-1 1-2 1-3 0-1-1-2-1-3 0-1 0-1-1-2-2-5-8-11-12-16-9-9-17-19-20-30 0-1 0-2-1-3 0 0 0-1 0-2 0-1 0-2 0-2 0-1 0-2 0-3-1-1-1-3-1-4 1-3 1-6 1-9 1-2 1-4 1-5 1-3 1-6 2-9 1-7 3-15 3-20-1-1-1-1-1-2 0-1 0-2-1-3-2-4-13-8-22-11-12-4-24-8-32-16-6-6-10-13-12-20-2-4-4-9-5-13-3-9-7-20-11-22-5-3-15-1-25 1-12 3-24 5-37 2-1 0-2-1-4-1-7-3-13-8-19-12-2-2-4-4-7-6-2-3-5-6-8-8-4-3-9-6-12-6 0 0-1-1-1-1-6 0-14 8-21 15-9 8-19 16-30 19-4 1-9 2-13 2-8 0-16-2-24-4-10-2-20-4-25-1-4 2-8 13-11 22-4 12-8 24-16 33-9 8-21 12-33 16-9 3-20 7-22 11-3 5-1 15 1 25 3 12 5 24 2 37-3 11-11 21-19 30-7 7-15 15-15 21 0 6 8 14 15 21 8 9 16 19 19 30 3 13 1 25-2 37-2 10-4 20-1 25 2 4 13 8 22 11 12 4 24 8 33 17 8 8 12 20 16 32 3 9 7 20 11 22 5 3 15 1 25-1 12-3 24-5 37-2 11 3 21 11 30 20 7 6 15 14 21 14z m0-82c-15 0-26-11-35-20-5-4-9-8-12-9-4-2-11-2-17-2-12-1-27-1-37-11-11-11-11-26-12-38 0-6 0-13-2-16-1-4-5-8-9-13-9-9-19-20-19-35 0-15 10-26 19-35 4-5 8-9 9-12 2-4 2-11 2-17 1-12 1-27 12-37 10-11 25-11 37-12 6 0 13 0 17-2 3-1 7-5 12-9 9-9 20-19 35-19 15 0 26 10 35 19 5 4 9 8 13 9 3 2 10 2 16 2 12 1 27 1 38 12 10 10 10 25 11 37 0 6 0 13 2 17 1 3 5 7 9 12 9 9 20 20 20 35 0 15-11 26-20 35-4 5-8 9-9 13-2 3-2 10-2 16-1 12-1 27-11 38-11 10-26 10-38 11-6 0-13 0-16 2-4 1-8 5-13 9-9 9-20 20-35 20z m0-30c4 0 10-6 15-11 6-6 13-12 21-15 9-4 19-4 27-5 7 0 16 0 18-2 2-2 2-11 2-18 1-8 1-18 5-27 3-8 9-15 15-21 5-5 11-11 11-15 0-4-6-10-11-15-6-6-12-13-15-21-4-9-4-18-5-27 0-7 0-15-2-18-2-2-11-2-18-2-8-1-18-1-27-4-8-4-15-10-21-16-5-5-11-11-15-11-4 0-10 6-15 11-6 6-13 12-21 16-9 3-18 3-27 4-7 0-16 0-18 2-2 3-2 11-2 18-1 9-1 18-4 27-4 8-10 15-16 21-5 5-11 11-11 15 0 4 6 10 11 15 6 6 12 13 16 21 3 9 3 19 4 27 0 7 0 16 2 18 2 2 11 2 18 2 9 1 18 1 27 5 8 3 15 9 21 15 5 5 11 11 15 11z m0-60c-30 0-54-24-54-54 0-30 24-54 54-54 30 0 54 24 54 54 0 30-24 54-54 54z m0-30c14 0 24-10 24-24 0-13-10-24-24-24-13 0-24 11-24 24 0 14 11 24 24 24z m320-188c11-9 22-18 32-29 39-39 77-101 100-164 22-63 22-102 14-109-7-8-46-8-109 14-63 23-125 61-164 100-11 11-20 21-28 32 6 1 11 2 17 5 18 11 26 33 32 53 2 7 5 14 7 20l18-17-15-53c-2-8 3-16 10-18 2 0 3 0 4 0 7 0 13 4 14 10l10 37 49-48-9-47c-2-8 3-16 11-18 1 0 2 0 3 0 7 0 13 5 15 12l5 28 40-41c3-3 7-4 11-4 3 0 7 1 10 4 6 6 6 15 0 21l-41 40 28 6c8 1 13 9 12 17-2 8-10 13-18 11l-47-9-48 49 37 10c7 2 12 10 10 18-2 7-10 12-18 10l-53-14-17 17c6 2 13 5 20 7 20 7 42 14 53 32 3 6 5 12 5 18z m-640 0c1-6 2-12 5-18 11-18 33-25 53-32 7-2 14-5 20-7l-17-17-53 14c-8 2-16-3-18-10-2-8 3-16 10-18l37-10-48-49-47 9c-8 2-16-3-17-11-2-8 3-16 11-17l28-6-41-40c-6-6-6-15 0-21 3-3 7-4 10-4 4 0 8 1 11 4l40 41 6-28c1-7 7-12 14-12 1 0 2 0 3 0 8 2 13 10 11 18l-9 47 49 48 10-37c1-6 7-10 14-10 1 0 2 0 4 0 7 2 12 10 10 18l-14 53 17 17c2-6 5-13 7-20 7-20 14-42 32-53 6-3 12-4 18-5-9-11-18-21-29-32-39-40-101-77-164-100-62-22-102-22-109-14-7 7-8 46 15 109 22 63 60 125 99 164 11 11 21 20 32 29z" horiz-adv-x="1000" />

<glyph glyph-name="cosmetic" unicode="&#xe802;" d="M593 850c-39 2-69-8-86-30l-118-149a10 10 0 0 1-2-8c-18-30-14-75 14-130a10 10 0 1 1 17 9c-25 52-29 92-11 115 22 28 75 31 146 8a825 825 0 0 0 246-138 825 825 0 0 0 193-206c37-61 49-109 30-139l-3-4a10 10 0 0 1-2-3c-25-28-85-27-164 2a10 10 0 1 1-7-18 333 333 0 0 1 110-24 93 93 0 0 1 78 31c2 3 5 7 7 10l56 71a10 10 0 0 1 4 3c2 3 4 7 6 10l44 55c27 35 18 94-26 167a845 845 0 0 1-197 211 846 846 0 0 1-253 141c-30 10-58 15-82 16z m-16-20c25 1 56-3 92-15a825 825 0 0 0 247-138 825 825 0 0 0 193-206c39-64 49-117 28-144l-21-27c0 32-14 72-41 116a845 845 0 0 1-197 212 10 10 0 0 1-12-16 825 825 0 0 0 191-206c39-64 49-116 28-144a10 10 0 0 1-2-3l-34-43c0 32-14 71-41 115a845 845 0 0 1-197 211 846 846 0 0 1-252 142c-51 16-94 20-125 11l36 46a10 10 0 0 1 2 2c27 34 99 30 192-10a10 10 0 0 1 3 0l0 0a10 10 0 0 1 4 19c-70 30-128 40-169 30l21 26c10 13 29 21 54 22z m-168-327c-228 0-407-70-409-158a10 10 0 0 1 0-2v-334c0-89 180-159 409-159 229 0 409 70 409 159v334a10 10 0 0 1 0 1c-1 89-180 159-409 159z m0-20v0c211 0 389-64 389-140 0-75-178-139-389-139-211 0-389 64-389 139 0 76 178 140 389 140z m328-130a10 10 0 0 1-9-10c0-44-131-93-319-93a10 10 0 0 1 0-19c164 0 339 39 339 112a10 10 0 0 1-11 10z m-717-59c52-64 204-110 389-110 185 0 337 46 389 110v-285c0-76-178-140-389-140-211 0-389 64-389 140z" horiz-adv-x="1166" />

<glyph glyph-name="delivery" unicode="&#xe803;" d="M312 850c-122 0-220-99-220-220 0-39 10-75 27-107h-83c-20 0-36-16-36-35v-482 0-53c0-20 16-35 36-35h97c13-40 50-68 93-68 44 0 80 28 93 68h533c13-40 49-68 93-68 43 0 80 28 92 68h63c19 0 35 15 35 35v232c0 4-1 8-3 11l-142 179c-4 4-9 6-14 6h-186v107c0 19-16 35-36 35h-249c17 32 27 68 27 107 0 121-98 220-220 220z m0-35c102 0 185-83 185-185 0-102-83-185-185-185-102 0-185 83-185 185 0 102 83 185 185 185z m122-104c-3 0-6-1-10-3l-185-118-34 50c-6 8-17 10-25 4-8-5-10-16-4-24l44-64c3-5 9-7 14-7 4 0 7 0 10 2l199 127c9 5 11 16 6 25-3 5-9 8-15 8z m-398-223h108c40-48 101-79 168-79 68 0 128 31 168 79h274v-124c0 0 0 0 0 0v-340h-467c-17 13-38 21-61 21-23 0-43-8-60-21h-130z m110-50c-9 0-17-8-17-18v-328c0-10 8-18 17-18 10 0 18 8 18 18v328c0 10-8 18-18 18z m332 0c-10 0-18-8-18-18v-328c0-10 8-18 18-18 9 0 17 8 17 18v328c0 10-8 18-17 18z m165 0c-10 0-18-8-18-18v-328c0-10 8-18 18-18 10 0 18 8 18 18v328c0 10-8 18-18 18z m-331-64c-10 0-18-8-18-18v-264c0-10 8-18 18-18 10 0 18 8 18 18v264c0 10-8 18-18 18z m478-28h46v-143c0-20 16-36 35-36h229v-54h-29c-10 0-18-8-18-18 0-9 8-17 18-17h29v-54h-95c-17 13-38 21-60 21-23 0-44-8-61-21h-94z m81 0h96l114-143h-210z m61-32c-5-1-9-3-13-6-6-7-6-19 1-25l39-36c7-6 19-6 25 1 7 8 6 19-1 25l-39 36c-3 3-8 5-12 5z m-706-304c34 0 62-28 62-62 0-35-28-63-62-63-34 0-62 28-62 63 0 34 28 62 62 62z m719 0c34 0 62-28 62-62 0-35-28-63-62-63-35 0-62 28-62 63 0 34 27 62 62 62z m-909-21h102c-5-11-8-23-9-36h-93z m279 0h541c-5-11-8-23-9-36h-523c-1 13-4 25-9 36z m718 0h67v-36h-58c-1 13-4 25-9 36z m-816-24c-9 0-17-8-17-17 0-10 8-18 17-18h18c10 0 18 8 18 18 0 9-8 17-18 17z m719 0c-10 0-18-8-18-17 0-10 8-18 18-18h18c9 0 17 8 17 18 0 9-8 17-17 17z" horiz-adv-x="1135" />

<glyph glyph-name="lime" unicode="&#xe804;" d="M199 850c-15 0-27-12-27-26 0-27 4-94 51-142 30-32 72-49 125-53-3-13-6-25-8-38-190-15-340-175-340-369 0-91 33-178 93-246 59-67 140-110 228-122 9-1 17 5 18 13 1 9-5 17-14 18-167 22-294 167-294 337 0 244 251 404 469 314-23-13-55-39-82-69-153-174-107-447 82-560-33-14-68-22-104-24-9-1-15-8-15-16 0-9 7-16 15-16 1 0 1 0 2 0 47 4 93 16 136 37 172-85 378-20 472 125h0c33 49 55 107 62 170 1 9-6 17-14 18-9 0-17-6-17-14-19-182-181-327-384-303-96 13-182 65-237 146-149 222-1 541 305 531v0c9 0 8 0 22-2v0c0 0 0 0 0 0 159-21 278-149 294-302 0-8 8-15 16-14 9 0 16 8 15 17-8 79-42 151-90 207v0c-31 34-67 63-107 84-27 14-59 26-82 31l-1 1c-20 4-39 7-41 7v0c-74 10-149-3-213-35-40 20-83 32-127 36 25 50 64 118 117 150 16 10 20 32 6 47l-37 38c-16 16-42 15-55-3-22-30-46-74-66-122-18 51-61 125-167 148-2 1-4 1-6 1z m4-32c111-28 140-116 148-158-98 7-146 68-148 158z m264-12c1 0 2-1 3-2l36-37c-65-40-107-121-133-174-1 0 0 0-1 0 15 77 56 164 91 211 1 1 2 2 4 2z m232-298c-37 1-72-6-103-18-50-19-93-56-102-67-143-145-94-388 94-466v0c55-22 110-27 163-17v0c261 39 334 433 57 547-35 14-73 21-109 21z m14-31c55-4 110-25 154-64l-141-141c-4 3-8 5-13 6z m-31 0v-199c-4-1-9-3-13-6l-140 141c38 33 80 52 129 61l0 0c8 1 16 2 24 3z m207-86c38-43 60-96 64-154h-199c-1 5-3 9-5 13z m-382 0l140-141c-2-4-4-8-5-13h-199c4 57 25 111 64 154z m191-142c16 0 29-14 27-31-2-12-12-22-24-23-17-2-32 13-30 30 2 12 11 22 23 23 1 1 2 1 4 1z m-540-25c-3 0-6-1-9-2-3-3-6-6-7-10 0-1 0-2 0-2 0-2 0-3 0-5 0-1 0-2 1-2 0-1 1-2 1-3 1-1 1-2 2-2 1-1 1-2 2-2 1-1 2-2 4-2 0-1 1-1 2-1 4-1 8 0 12 2 3 2 6 6 7 10 0 0 0 1 0 2 0 1 0 3 0 4 0 1-1 2-1 3 0 1-1 2-1 3-1 0-1 1-2 2-1 1-1 1-2 2-1 1-2 1-4 2-1 0-1 0-2 0-1 1-2 1-3 1z m285-18h199c1-5 3-9 5-13l-141-140c-3 3-4 4-5 6-6 7-10 13-15 19-21 32-35 68-40 103-2 9-2 16-3 25z m311 0h199c-4-59-27-112-64-154l-140 141c2 4 4 8 5 13z m-28-35l141-141c-16-14-32-25-50-35-24-12-46-20-72-25-10-2-22-3-32-3v198c5 2 9 4 13 6z m-57 0c4-2 9-4 13-6v-198c-13 0-25 2-24 2-1 0-5 1-7 1-9 2-26 5-51 16-8 3-15 6-20 9-13 7-24 14-33 21v0c-7 4-13 9-18 14z m-544-24c-3 0-5 0-7-2-4-2-7-5-8-9 0-1 0-2 0-2 0-2 0-3 0-5 0-1 0-1 0-2 1-1 1-2 2-3 0-1 1-2 1-3 1 0 1-1 2-1 1-1 2-2 4-3 1 0 1 0 2 0 4-2 8-1 12 1 4 2 6 5 7 9 1 1 1 2 1 3 0 1 0 3 0 4 0 1-1 2-1 2 0 1-1 2-1 3-1 1-1 2-2 3 0 0-1 1-1 1-2 1-3 2-4 3-1 0-2 0-2 1-2 0-3 0-5 0z m85-3c-3 0-6 0-9-2-3-2-6-6-7-10 0-1 0-1 0-2 0-2 0-3 0-5 0 0 0-1 1-2 0-1 1-2 1-3 1-1 1-1 2-2 0-1 1-1 2-2 1-1 2-1 4-2 0 0 1 0 2-1 4-1 8 0 12 2 3 2 6 6 7 10 0 1 0 2 0 2 0 2 0 3 0 5 0 1-1 1-1 2 0 1-1 2-1 3-1 1-1 2-2 2-1 1-1 1-2 2-1 1-2 2-4 2-1 0-1 1-2 1-1 0-2 0-3 0z m-40-80c-2 0-5-1-7-2-4-2-6-6-7-10-1 0-1-1-1-2 0-1 0-3 0-4 0-1 1-2 1-3 0-1 1-2 1-3 1 0 1-1 2-2 0-1 1-1 1-2 2-1 3-2 4-2 1-1 2-1 2-1 4-1 9-1 12 1 4 2 7 6 8 10 0 1 0 1 0 2 0 2 0 3 0 5 0 0 0 1 0 2-1 1-1 2-2 3 0 1-1 1-1 2-1 1-1 1-2 2-1 1-2 2-4 2-1 1-1 1-2 1-2 1-3 1-5 1z m89-1c-3 0-6-1-9-2-3-3-6-6-7-10 0-1 0-2 0-2 0-2 0-3 0-5 0-1 1-1 1-2 0-1 1-2 1-3 1-1 2-2 2-2 1-1 1-2 2-2 1-1 3-2 4-2 1-1 1-1 2-1 4-1 8 0 12 2 3 2 6 6 7 10 0 0 0 1 0 2 0 2 0 3 0 5 0 0 0 1-1 2 0 1 0 2-1 3-1 0-1 1-2 2 0 1-1 1-2 2-1 1-2 1-4 2 0 0-1 0-2 1-1 0-2 0-3 0z" horiz-adv-x="1068" />

<glyph glyph-name="loupe" unicode="&#xe805;" d="M417 850c-230 0-417-187-417-417 0-230 187-416 417-416 100 0 191 35 263 94l248-248c17-17 43-17 60 0 16 17 16 42-1 59l-247 248c58 72 94 163 94 263 0 230-187 417-417 417z m0-83c184 0 333-150 333-334 0-184-149-334-333-334-184 0-334 150-334 334 0 184 150 334 334 334z" horiz-adv-x="1000" />

<glyph glyph-name="makeup-kit" unicode="&#xe806;" d="M36 850a36 36 0 0 1-36-36v-928a36 36 0 0 1 36-36h755a36 36 0 0 1 37 36v928a36 36 0 0 1-36 36z m0-16h755a20 20 0 0 0 20-20v-928a20 20 0 0 0-19-20h-756a20 20 0 0 0-20 20v928a20 20 0 0 0 20 20z m209-64a8 8 0 0 1-3 0 156 156 0 0 1-147-221 8 8 0 0 1 1-2 156 156 0 0 1 140-89 156 156 0 0 1 156 156 156 156 0 0 1-143 155 8 8 0 0 1-4 1z m340 0a156 156 0 0 1 6-312 156 156 0 0 1 156 156 156 156 0 0 1-162 156z m6-17a140 140 0 0 0 140-139 140 140 0 1 0-140 139z m-344 0a140 140 0 0 0 129-135l-97-96a8 8 0 0 1 6-15 8 8 0 0 1 6 3l83 83a140 140 0 0 0-182-112l58 58a8 8 0 0 1-12 12l-62-63a140 140 0 0 0-63 61l77 78a8 8 0 0 1-11 12l-74-73a140 140 0 0 0 119 187l-52-53a8 8 0 0 1 5-14 8 8 0 0 1 6 2z m376-19a70 70 0 0 1 3-139 70 70 0 0 1 69 70 70 70 0 0 1-72 69z m-348-2a8 8 0 0 1-6-3l-37-36a8 8 0 0 1 6-14 8 8 0 0 1 6 2l37 37a8 8 0 0 1-6 14z m351-13a53 53 0 0 0 53-54 53 53 0 1 0-53 53z m-334-39a8 8 0 0 1-6-2l-95-95a8 8 0 0 1 6-14 8 8 0 0 1 6 2l95 95a8 8 0 0 1-6 14z m-151-13a8 8 0 0 1-5-3l-28-27a8 8 0 0 1 6-15 8 8 0 0 1 6 3l28 28a8 8 0 0 1-7 14z m368-5a51 51 0 0 1 2-102 51 51 0 0 1 51 51 51 51 0 0 1-53 51z m2-17a35 35 0 0 0 34-34 35 35 0 1 0-34 34z m-176-2a8 8 0 0 1-6-2l-38-37a8 8 0 0 1 6-14 8 8 0 0 1 6 2l37 37a8 8 0 0 1-5 14z m267-53a53 53 0 0 1 3-105 53 53 0 0 1 52 53 53 53 0 0 1-55 52z m3-17a36 36 0 0 0 36-35 36 36 0 1 0-36 35z m-375-179a156 156 0 0 1 6-312 156 156 0 0 1 156 156 156 156 0 0 1-162 156z m355 0a156 156 0 0 1-150-155 8 8 0 0 1 0-2 156 156 0 0 1 146-154 8 8 0 0 1 1-1 8 8 0 0 1 1 1 156 156 0 0 1 8-1 156 156 0 0 1 156 156 156 156 0 0 1-13 64 8 8 0 0 1-3 5 156 156 0 0 1-78 74 8 8 0 0 1 0 0 156 156 0 0 1-68 13z m-349-16a140 140 0 0 0 140-140 140 140 0 1 0-140 140z m355 0a140 140 0 0 0 44-8l-58-57a8 8 0 0 1 6-14 8 8 0 0 1 6 2l63 63a140 140 0 0 0 63-62l-77-77a8 8 0 0 1 5-14 8 8 0 0 1 6 2l73 73a140 140 0 0 0 9-48 140 140 0 0 0-128-139l53 53a8 8 0 1 1-12 12l-65-65a140 140 0 0 0-127 136l96 96a8 8 0 0 1-12 11l-83-82a140 140 0 0 0 138 118z m38-95a8 8 0 0 1-5-2l-95-95a8 8 0 0 1 6-14 8 8 0 0 1 6 2l95 95a8 8 0 0 1-7 14z m-99-20a8 8 0 0 1-6-2l-37-38a8 8 0 0 1 6-14 8 8 0 0 1 6 2l37 38a8 8 0 0 1-6 14z m184-33a8 8 0 0 1-6-3l-28-27a8 8 0 0 1 6-14 8 8 0 0 1 6 2l27 28a8 8 0 0 1-5 14z m-125-57a8 8 0 0 1-6-2l-36-37a8 8 0 0 1 5-14 8 8 0 0 1 7 3l36 36a8 8 0 0 1-6 14z m-458-145a51 51 0 0 1-51-52v-22a51 51 0 0 1 51-51h72a51 51 0 0 1 48 35h325a51 51 0 0 1 48-35h72a51 51 0 0 1 51 51v22a51 51 0 0 1-52 52h-71a51 51 0 0 1-48-35h-74a8 8 0 0 1 0-17h71v-21h-319v21h141 1a8 8 0 0 1 0 17h-145a51 51 0 0 1-48 35z m0-17h72a35 35 0 0 0 34-35v-22a35 35 0 0 0-34-35h-72a35 35 0 0 0-34 35v22a35 35 0 0 0 34 35z m493 0h71a35 35 0 0 0 35-35v-22a35 35 0 0 0-35-35h-71a35 35 0 0 0-35 35v22a35 35 0 0 0 35 35z" horiz-adv-x="828" />

<glyph glyph-name="map" unicode="&#xe807;" d="M423 850c-124 0-226-101-226-225 0-82 43-134 88-189 19-24 39-48 58-77l-20 8c-2 0-6 2-11 0l-194-71c-4-2-8-6-9-11l-108-415c-2-6 0-13 5-16 4-4 11-5 16-3l245 114c2-1 226-114 224-113 4-3 9-3 13 0 7 3 170 86 224 113l245-114c5-2 12-1 17 3 4 3 6 10 5 16l-108 415c-2 5-5 9-10 11-169 60-192 73-202 72-2-1-176-70-177-70l-24 9c63 134 174 183 174 318 0 124-101 225-225 225z m0-31c107 0 194-87 194-194 0-137-138-179-194-364-27 89-73 144-114 195-45 54-80 98-80 169 0 107 87 194 194 194z m0-63c-2 0-4-1-6-1-2-1-123-51-120-50-8-3-12-12-9-20 4-8 13-12 21-9l4 2v-141c0-9 7-16 16-16h188c8 0 15 7 15 16v141l5-2c8-3 17 1 20 9 4 8 0 17-8 20l-120 50c-2 0-4 1-6 1z m0-33l78-32v-138h-31v72c0 9-7 16-16 16h-62c-9 0-16-7-16-16v-72h-31v138z m-93-393l37-14c18-35 32-76 40-126 2-7 8-13 16-13 7 0 14 6 15 13 6 33 14 62 24 88l20-8v-379l-198 101z m334 0l45-339-196-100v379z m32-1l162-60 98-375-215 100z m-398-1l-45-335-214-99 98 375z" horiz-adv-x="995" />

<glyph glyph-name="mascara" unicode="&#xe808;" d="M148 850c-70 0-145-20-147-58a8 8 0 0 1 0-2v-422c0-39 76-60 147-60 72 0 148 21 148 60v422a8 8 0 0 1-1 2c-2 38-77 58-147 58z m0-16c78 0 132-23 132-44 0-21-54-44-132-44a8 8 0 0 1 0-16c52 0 106 11 132 32v-394c0-21-54-44-132-44-77 0-132 23-132 44v394c8-6 18-12 31-16a8 8 0 0 1 5 14c-22 9-36 20-36 30 0 21 55 44 132 44z m430-46a8 8 0 0 1-4-1l-42-24-41 24a8 8 0 0 1-7-13l33-19-33-20a8 8 0 0 1 4-14 8 8 0 0 1 3 1l34 19v-12l0 0a8 8 0 0 1-8-13l0-1-33-19a8 8 0 0 1 4-14 8 8 0 0 1 3 1l34 19v-13l0 1a8 8 0 1 1-8-14l0 0-33-19a8 8 0 0 1 4-15 8 8 0 0 1 3 1l34 20v-12l0 0a8 8 0 1 1-8-14l0 0-33-19a8 8 0 0 1 4-15 8 8 0 0 1 3 1l34 19v-12l0 1a8 8 0 1 1-8-14l0 0-33-20a8 8 0 0 1 4-14 8 8 0 0 1 3 1l34 19v-300a8 8 0 0 1 8-8 8 8 0 0 1 8 8v300l33-19a8 8 0 0 1 4-1v0a8 8 0 0 1 4 15l-33 19 0 0a8 8 0 0 1-8 14l0-1v12l33-19a8 8 0 0 1 4-1v0a8 8 0 0 1 4 15l-33 19 0 0a8 8 0 0 1-8 14l0 0v11l33-19a8 8 0 0 1 4-1v0a8 8 0 0 1 4 15l-34 19 1 0a8 8 0 0 1-8 14l0 0v12l33-19a8 8 0 0 1 4-1v0a8 8 0 0 1 4 14l-33 19 0 1a8 8 0 0 1-8 13l0 0v12l33-19a8 8 0 0 1 4-1l-1-1a8 8 0 0 1 4 15l-33 19 34 19a8 8 0 0 1-4 15z m-13-445a8 8 0 0 1-1-16c63-6 101-26 101-43 0-21-55-44-132-44a8 8 0 0 1 0-16c52 0 106 11 132 32v-346c0-21-54-44-132-44-78 0-132 23-132 44v346c8-7 18-12 31-17a8 8 0 0 1 2 0l0-1a8 8 0 0 1 3 16c-22 8-36 19-36 29 0 17 37 38 101 43a8 8 0 0 1-2 16c-55-5-110-24-114-55a8 8 0 0 1-1-3v-374c0-39 76-60 148-60 71 0 147 21 147 60v374a8 8 0 0 1 0 1c-1 33-58 53-114 58a8 8 0 0 1-1 0z m-277-19a8 8 0 0 1-8-8v-32c0-21-54-44-132-44a8 8 0 0 1 0-16c72 0 148 21 148 60v32a8 8 0 0 1-8 8z m-281-1a8 8 0 0 1-7-8v-31c0-21 23-39 63-50h2l0-1a8 8 0 0 1 2 16c-31 9-51 22-51 35v31a8 8 0 0 1-9 8z m1-83a8 8 0 0 1-7-8v-322c0-39 76-60 147-60 72 0 148 21 148 60v322a8 8 0 0 1-16 0v-322c0-21-54-44-132-44-77 0-132 23-132 44v322a8 8 0 0 1-8 8z" horiz-adv-x="680" />

<glyph glyph-name="menu" unicode="&#xe809;" d="M63 850c-35 0-63-28-63-62 0-35 28-63 63-63h1875c34 0 62 28 62 63 0 34-28 62-62 62z m0-437c-35 0-63-28-63-63 0-34 28-62 63-62h1875c34 0 62 28 62 62 0 35-28 63-62 63z m625-438c-35 0-63-28-63-63 0-34 28-62 63-62h1250c34 0 62 28 62 62 0 35-28 63-62 63z" horiz-adv-x="2000" />

<glyph glyph-name="passion" unicode="&#xe80a;" d="M292 850c-175 0-292-163-292-345 0-137 69-403 530-651 11-5 24-5 35 0 461 248 530 514 530 651 0 186-120 345-292 345-129 0-213-70-256-116-42 46-127 116-255 116z m511-73c136 0 219-134 219-272 0-252-253-455-475-577-221 122-474 325-474 577 0 140 84 272 219 272 102 0 187-63 224-122 15-23 48-23 62 0 1 2 77 122 225 122z" horiz-adv-x="1095" />

<glyph glyph-name="powder-box" unicode="&#xe80b;" d="M396 850c-218 0-396-140-396-311 0-124 93-236 236-285a488 488 0 0 1 58-16c-170-17-293-76-294-148a8 8 0 0 1 0-1v-86c0-86 174-153 396-153 223 0 397 67 396 153v86a8 8 0 0 1 0 1l0 0c0 72-124 131-296 148a489 489 0 0 1 57 15c145 49 239 161 239 286 0 171-178 311-396 311z m0-16c211 0 381-132 381-295 0-117-89-223-228-271a483 483 0 0 0-307 1c-137 48-226 153-226 270 0 163 171 295 380 295z m0-47a8 8 0 0 1 0-16c36 0 70-5 101-14l-131-131a8 8 0 0 1 6-14 8 8 0 0 1 5 2l138 138c106-36 181-118 181-213 0-128-135-232-300-232-165 0-299 104-299 232a193 193 0 0 0 38 113 8 8 0 0 1-13 10 209 209 0 0 1-41-123c0-137 141-248 315-248 174 0 316 111 316 248 0 103-81 192-196 229a8 8 0 0 1-3 1c-36 11-75 18-117 18a8 8 0 0 1 0 0z m-101-14a8 8 0 0 1-3 0 353 353 0 0 1-76-31 8 8 0 0 1 4-15 8 8 0 0 1 3 1 337 337 0 0 0 74 29 8 8 0 0 1-2 16z m218-145a8 8 0 0 1-6-3l-149-149a8 8 0 0 1 6-14 8 8 0 0 1 5 3l149 149a8 8 0 0 1-5 14z m-225-84a8 8 0 0 1-6-3l-83-83a8 8 0 0 1 6-13 8 8 0 0 1 6 2l82 83a8 8 0 0 1-5 14z m108-317c207 0 380-63 380-137 0-74-174-138-380-138-206 0-380 64-380 138 0 0 0 0 0 0 0 74 174 137 380 137z m380-181v-43c0-74-174-138-380-138-206 0-380 63-380 138v43c47-64 198-110 380-110 183 0 333 46 380 110z" horiz-adv-x="792" />

<glyph glyph-name="shopping-bag" unicode="&#xe80c;" d="M414 850c-106 0-191-86-191-191v-57h-126c-19 0-34-14-36-33l-61-680c-1-10 3-20 9-27 7-8 17-12 27-12h756 0c20 0 36 16 36 36 0 2 0 4-1 6l-61 677c-1 19-17 33-35 33h-126v57c0 105-86 191-191 191z m0-72c66 0 119-53 119-119v-57h-239v57c0 66 54 119 120 119z m-284-248h93v-64c0-20 16-36 35-36 20 0 36 16 36 36v64h239v-64c0-20 16-36 36-36 20 0 36 16 36 36v64h93l54-608h-677z" horiz-adv-x="828" />

<glyph glyph-name="trunk" unicode="&#xe80d;" d="M188 850c-8 0-15-7-15-15v-549l-151 77c-5 3-10 2-15 0-4-3-7-8-7-13v-153c0-5 3-9 7-12l166-104v-216c0-8 7-15 15-15h610c9 0 15 7 15 15v601l46 45 0 0 135 135c6 6 6 15 0 21l-102 102c-6 6-14 6-20 1l-59-50v115c0 8-6 15-15 15z m15-30h99v-252c0-8 6-15 14-15 9 0 15 7 15 15v252h76v-174c-6-27-64-308 87-366 2-1 3-1 5-1 6 0 12 3 14 9 3 8-1 16-9 19-131 51-68 332-68 334 1 2 1 3 1 4v175h99v-69c0-8 7-15 15-15 8 0 15 7 15 15v69h125v-252c0-8 6-15 15-15 8 0 14 7 14 15v252h64v-133c0-6 3-11 8-13 5-3 12-2 16 2l72 62c-12-29-45-117-46-210l-46-46c-3-3-5-6-5-10v-592h-53v260c0 8-7 15-15 15-8 0-15-7-15-15v-260h-80v359c17 17 78 83 87 156 1 8-5 15-13 17-8 1-15-5-16-13-10-73-82-143-83-143-3-3-5-7-5-11v-365h-76v302c0 9-7 15-15 15-8 0-15-6-15-15v-302h-73v113c0 8-6 15-14 15-9 0-15-7-15-15v-113h-73v252c0 8-7 15-15 15-8 0-15-7-15-15v-252h-76z m700-104l59-59-97-98c6 66 27 127 38 157z m-349-41c-6 1-10-1-13-2-39-20-72-129-78-151-3-8 2-16 10-18 8-2 16 2 18 10 14 48 42 119 62 131 4-1 12-8 23-29 30-58 47-156 24-212-14-33-32-51-50-50-21 2-42 28-50 63-2 8-10 13-18 11-8-2-13-10-11-18 11-48 42-83 76-85 2 0 3 0 5 0 19 0 51 10 75 67 22 53 12 119 4 154-12 53-32 99-53 118-9 9-18 11-24 11z m-301 0c-8 0-14-6-14-14v-161c0-8 6-15 14-15 9 0 15 7 15 15v161c0 8-6 14-15 14z m41-285c-2 0-4 0-6-1-7-3-11-12-8-19 2-5 51-127 98-174 39-39 28-111 28-112-2-8 4-16 12-17 1 0 1 0 2 0 7 0 14 5 15 12 0 4 14 88-36 138-43 43-91 163-91 164-3 5-8 9-14 9z m-264-64l143-74v-35c-40 8-105 66-143 107z m0-45c34-33 96-87 143-93v-72l-143 90z" horiz-adv-x="998" />

<glyph glyph-name="wave" unicode="&#xe80e;" d="M400 851c-79 0-146-54-166-127-20 9-41 13-63 13-94 0-171-77-171-171 0-35 10-68 29-96-18-20-29-47-29-76 0-41 23-79 58-99 6-69 62-123 131-129 15-35 41-67 64-94-1-1-2-3-3-4-7-12-21-18-37-18-16 0-31 6-38 18-18 27-50 43-85 43-35 0-67-16-85-43-9-13-5-31 8-40 13-9 31-5 39 8 8 11 22 18 38 18 16 0 30-7 38-18 18-27 49-43 85-43 35 0 67 16 85 43 3 4 6 8 11 11 8 6 19 8 30 6 10-2 19-8 25-17 18-27 49-43 81-43 33 0 63 16 81 43 8 11 20 18 33 18 14 0 26-7 34-18 18-27 48-43 81-43 32 0 62 16 80 43 8 11 20 18 34 18 13 0 25-7 33-18 18-27 48-43 81-43 32 0 63 16 81 43 7 11 19 18 33 18 14 0 26-7 33-18 18-27 49-43 81-43 33 0 63 16 81 43 3 5 8 9 14 12 18 10 48 7 61-12 18-27 50-43 85-43 36 0 67 16 85 43 9 13 6 31-7 40-14 8-31 5-40-8-7-12-22-18-38-18-16 0-30 6-37 18-25 36-73 51-117 38-88 76-199 117-315 117h-93c-95 0-176 73-181 162-2 46 14 90 44 124 67-8 127 45 127 114 0 41-22 78-58 98-6 73-67 130-142 130-35 0-69-13-95-37-30 24-66 37-104 37z m0-57c32 0 63-14 85-39 6-7 14-10 23-10 8 1 16 5 21 12 17 23 43 37 70 37 47 0 85-38 86-85 0-1 0-2-1-4 0-13 8-25 20-29 23-8 38-29 38-53 0-32-26-57-57-57-24 0-29 14-48 8-8-3-14-8-17-15-14-31-44-51-78-51-32 0-61 19-76 48-6 13-20 19-34 15-12-4-23-5-32-5-14 0-27 2-41 7-11 5-25 1-32-9-8-10-8-24-1-34 11-15 17-32 17-50 0-24-10-47-29-63-8-8-18-14-29-17-8-3-15-10-18-18-2-9-1-18 4-25 9-15 14-31 14-48 0-47-38-86-85-86-47 0-85 38-86 85 0 1 1 2 1 4 0 13-7 25-19 29-23 8-39 29-39 53 0 20 10 38 27 48 7 5 12 13 13 21 1 9-2 17-8 23-20 22-32 50-32 80 0 62 51 114 114 114 25 0 48-8 69-24 8-6 20-7 30-3 10 5 16 16 15 28 1 62 52 113 115 113z m28-114c-16 0-28-13-28-29 0-16 12-28 28-28 16 0 29 12 29 28 0 16-13 29-29 29z m-285-57c-16 0-29-13-29-29 0-16 13-28 29-28 16 0 28 12 28 28 0 16-12 29-28 29z m399 0c-15 0-28-13-28-29 0-16 13-28 28-28 16 0 29 12 29 28 0 16-13 29-29 29z m514-57c-16 0-29-13-29-29 0-16 13-29 29-29 16 0 29 13 29 29 0 16-13 29-29 29z m-629-55c26-37 69-60 115-60 13 0 25 2 37 5-6-24-9-49-8-74 3-59 30-114 75-154-109 17-209 76-276 166 19 24 30 55 30 86 0 10-1 19-3 28 10 0 19 1 30 3z m401-3c-48 0-86-38-86-85 0-47 38-86 86-86 47 0 85 39 85 86 0 47-38 85-85 85z m-628-57c-16 0-29-12-29-28 0-16 13-29 29-29 16 0 28 13 28 29 0 16-12 28-28 28z m628 0c15 0 28-12 28-28 0-16-13-29-28-29-16 0-29 13-29 29 0 16 13 28 29 28z m-489-110c91-110 227-175 372-175h191c97 0 190-33 266-93-2-1-3-3-4-5-8-12-20-18-34-18-13 0-26 6-33 18-18 27-48 43-81 43-33 0-63-16-81-43-7-12-19-18-33-18-14 0-26 6-33 18-19 27-49 43-81 43-33 0-63-16-81-43-8-12-20-18-33-18-14 0-26 6-34 18-18 27-48 43-81 43-32 0-62-16-80-43-8-12-20-18-34-18-13 0-26 6-33 18-15 21-37 36-62 41-17 3-34 2-50-3-19 21-39 45-52 69 55 20 95 73 95 134 0 11-2 22-4 32z m603-4c-16 0-29-13-29-28 0-16 13-29 29-29 16 0 28 13 28 29 0 15-12 28-28 28z m-852-369c-35 0-67-16-85-43-9-13-5-31 8-40 13-8 31-5 39 8 8 11 22 18 38 18 16 0 30-7 38-18 18-27 49-43 85-43 35 0 67 16 85 43 7 12 19 18 33 18 14 0 26-6 33-18 18-27 49-43 81-43 33 0 63 16 81 43 8 12 20 18 33 18 14 0 26-6 34-18 18-27 48-43 81-43 32 0 62 16 80 43 8 12 20 18 34 18 13 0 25-6 33-18 18-27 48-43 81-43 32 0 63 16 81 43 7 12 19 18 33 18 14 0 26-6 33-18 18-27 49-43 81-43 33 0 63 16 81 43 7 11 22 18 38 18 16 0 30-7 37-18 18-27 50-43 85-43 36 0 67 16 85 43 9 13 6 31-7 40-14 9-31 5-40-8-7-11-22-18-38-18-16 0-30 7-37 18-18 27-50 43-85 43-36 0-67-16-85-43-8-11-20-18-34-18-13 0-26 7-33 18-18 27-48 43-81 43-33 0-63-16-81-43-7-11-19-18-33-18-14 0-26 7-33 18-19 27-49 43-81 43-33 0-63-16-81-43-8-11-20-18-33-18-14 0-26 7-34 18-18 27-48 43-81 43-32 0-62-16-80-43-8-11-20-18-34-18-13 0-26 7-33 18-18 27-48 43-81 43-32 0-63-16-81-43-7-11-21-18-37-18-16 0-31 7-38 18-18 27-50 43-85 43z" horiz-adv-x="1461" />

<glyph glyph-name="th-large-outline" unicode="&#xe80f;" d="M365 872q43 0 73-31t31-74l0-260q0-44-31-74t-73-30l-261 0q-44 0-74 30t-30 74l0 260q0 43 31 74t73 31l261 0z m0-365l0 260-261 0 0-260 261 0z m573 365q42 0 73-31t30-74l0-260q0-44-30-74t-73-30l-260 0q-44 0-75 30t-30 74l0 260q0 43 31 74t74 31l260 0z m0-365l0 260-260 0 0-260 260 0z m-573-209q43 0 73-30t31-74l0-260q0-44-31-74t-73-31l-261 0q-43 0-73 31t-31 74l0 260q0 44 30 74t74 30l261 0z m0-364l0 260-261 0 0-260 261 0z m573 364q42 0 73-30t30-74l0-260q0-44-30-74t-73-31l-260 0q-43 0-74 31t-31 74l0 260q0 43 30 73t75 31l260 0z m0-364l0 260-260 0 0-260 260 0z" horiz-adv-x="1041" />

<glyph glyph-name="burger" unicode="&#xe810;" d="M83 850c-46 0-83-37-83-83 0-46 37-84 83-84 46 0 84 38 84 84 0 46-38 83-84 83z m417 0c-46 0-83-37-83-83 0-46 37-84 83-84 46 0 83 38 83 84 0 46-37 83-83 83z m416 0c-46 0-83-37-83-83 0-46 37-84 83-84 46 0 84 38 84 84 0 46-38 83-84 83z m-833-416c-46-1-83-38-83-84 0-46 37-83 83-83 46 0 84 37 84 83 0 46-38 84-84 84z m417 0c-46-1-83-38-83-84 0-46 37-83 83-83 46 0 83 37 83 83 0 46-37 84-83 84z m416 0c-46-1-83-38-83-84 0-46 37-83 83-83 46 0 84 37 84 83 0 46-38 84-84 84z m-833-417c-46 0-83-37-83-83 0-46 37-84 83-84 46 0 84 37 84 83 0 46-38 84-84 84z m417 0c-46 0-83-37-83-84 0-46 37-83 83-83 46 0 83 37 83 83 0 46-37 84-83 84z m416 0c-46 0-83-37-83-84 0-46 37-83 83-83 46 0 84 37 84 83 0 46-38 84-84 84z" horiz-adv-x="1000" />

<glyph glyph-name="grid" unicode="&#xe813;" d="M0 850v-270h271v270z m365 0v-270h270v270z m365 0v-270h270v270z m-730-365v-270h271v270z m365 0v-270h270v270z m365 0v-270h270v270z m-730-364v-271h271v271z m365 0v-271h270v271z m365 0v-271h270v271z" horiz-adv-x="1000" />

<glyph glyph-name="list" unicode="&#xe814;" d="M0 850v-278h278v278z m367 0v-278h890v278z m-367-361v-278h278v278z m367 0v-278h890v278z m-367-361v-278h278v278z m367 0v-278h890v278z" horiz-adv-x="1257" />

<glyph glyph-name="passion-fill" unicode="&#xe815;" d="M292 850c-175 0-292-163-292-345 0-137 69-403 530-651 11-5 24-5 35 0 461 248 530 514 530 651 0 186-120 345-292 345-129 0-213-70-256-116-42 46-127 116-255 116z" horiz-adv-x="1095" />

<glyph glyph-name="push-pin-alt" unicode="&#xe817;" d="M681 850l-42-41 39-38-288-217c-35 28-79 43-125 43-55 0-106-21-145-59l-20-21 221-222-321-321v-124h124l321 321 222-221 21 20c73 74 79 190 16 270l217 288 38-39 41 42z m-581-942h-42v42l305 304 41-41z m565 126l-481 481c24 15 52 24 81 24 39 0 76-15 103-43l278-278c50-50 56-127 19-184z m-1 249l-231 231 286 215 160-160z" horiz-adv-x="1000" />

<glyph glyph-name="email" unicode="&#xe818;" d="M1197 845h-1082c-63 0-115-52-115-115v-770c0-63 52-115 115-115h1082c64 0 116 51 116 115v770c0 63-52 115-116 115z m-15-77l-523-523-527 523z m-1105-792v738l370-367z m54-54l371 371 130-129c15-15 39-15 54 0l127 127 369-369z m1105 54l-369 369 369 369z" horiz-adv-x="1313" />

<glyph glyph-name="phone-call" unicode="&#xe819;" d="M921 192c-62 0-122 9-179 28-28 10-60 2-78-16l-114-86c-130 69-213 153-282 282l83 111c21 21 29 52 20 80-19 58-29 119-29 180 0 44-35 79-79 79h-184c-44 0-79-35-79-79 0-508 413-921 921-921 44 0 79 35 79 79v184c0 43-35 79-79 79z m26-263c0-15-11-26-26-26-479 0-868 389-868 868 0 15 12 26 26 26h184c15 0 27-11 27-26 0-67 10-133 31-196 3-10 0-20-9-30l-96-127c-6-8-7-18-3-27 78-154 173-248 328-328 9-4 19-3 28 3l129 98c7 7 18 9 27 6 63-20 129-31 196-31 15 0 26-12 26-26v-184z" horiz-adv-x="1000" />

<glyph glyph-name="placeholder" unicode="&#xe81a;" d="M376 663c-104 0-188-85-188-188 0-103 84-187 188-187 103 0 187 84 187 187 0 103-84 188-187 188z m0-313c-69 0-125 56-125 125 0 69 56 125 125 125 69 0 125-56 125-125 0-69-56-125-125-125z m0 500c-207 0-375-168-375-375 0-260 338-601 353-616 6-6 14-9 22-9 8 0 16 3 22 9 14 15 353 356 353 616 0 207-169 375-375 375z m0-924c-75 80-313 350-313 549 0 172 140 313 313 313 172 0 312-141 312-313 0-198-238-469-312-549z" horiz-adv-x="750" />

<glyph glyph-name="close" unicode="&#xe820;" d="M39 850c-10 0-20-4-28-11-15-16-15-40 0-56l434-433-434-433c-15-16-15-40 0-56 16-15 41-15 56 0l433 434 433-434c16-15 40-15 56 0 15 16 15 40 0 56l-434 433 434 433c15 16 15 40 0 56-16 15-40 15-56 0l-433-434-433 434c-8 7-18 11-28 11z" horiz-adv-x="1000" />

<glyph glyph-name="location" unicode="&#xe821;" d="M375 850c-207 0-375-168-375-375 0-276 346-605 361-619 8-8 20-8 28 0 15 14 361 343 361 619 0 207-168 375-375 375z m0-167c115 0 208-93 208-208 0-115-93-208-208-208-115 0-208 93-208 208 0 115 93 208 208 208z" horiz-adv-x="750" />

<glyph glyph-name="sidebar" unicode="&#xe822;" d="M91 850c-50 0-91-41-91-91v-818c0-50 41-91 91-91h818c50 0 91 41 91 91v818c0 50-41 91-91 91z m0-45h818c25 0 46-21 46-46v-91h-909v91c0 25 20 46 45 46z m23-46a23 23 0 0 1-23-23 23 23 0 0 1 23-22 23 23 0 0 1 22 22 23 23 0 0 1-22 23z m91 0a23 23 0 0 1-23-23 23 23 0 0 1 23-22 23 23 0 0 1 22 22 23 23 0 0 1-22 23z m91 0a23 23 0 0 1-23-23 23 23 0 0 1 23-22 23 23 0 0 1 22 22 23 23 0 0 1-22 23z m-250-136h272v-728h0-227c-25 0-45 21-45 46z m318 0h591v-682c0-25-21-46-46-46h-545z m-250-137c-13 0-23-10-23-22 0-13 10-23 23-23h136c13 0 23 10 23 23 0 12-10 22-23 22z m0-136c-13 0-23-10-23-23 0-12 10-22 23-22h136c13 0 23 10 23 22 0 13-10 23-23 23z m0-136c-13 0-23-10-23-23 0-13 10-23 23-23h136c13 0 23 10 23 23 0 13-10 23-23 23z m0-137c-13 0-23-10-23-22 0-13 10-23 23-23h91c12 0 22 10 22 23 0 12-10 22-22 22z" horiz-adv-x="1000" />

<glyph glyph-name="plus" unicode="&#xe823;" d="M476 850v-476h-476v-48h476v-476h48v476h476v48h-476v476z" horiz-adv-x="1000" />

<glyph glyph-name="tik-tok" unicode="&#xe836;" d="M462 850v-446l0-244c0-66-43-121-102-141-17-5-35-8-55-7-24 1-47 9-67 21-43 25-72 71-72 124-2 83 65 150 148 150 16 0 32-2 46-7v122 44c-15 2-31 3-47 3-90 0-175-38-235-105-46-51-73-117-77-185-6-90 27-175 91-238 9-10 19-18 29-26 55-42 122-65 192-65 16 0 32 1 47 3 66 10 127 40 175 88 58 58 91 135 91 217l-1 365c29-21 59-39 92-53 51-22 106-33 162-33v119 44c0 0-1 0-1 0-57 0-110 19-152 51-49 36-84 90-96 152-3 15-5 31-5 47z" horiz-adv-x="879" />

<glyph glyph-name="alert" unicode="&#xe838;" d="M557 130c-24 0-43-19-43-43 0-24 19-44 43-44 24 0 44 20 44 44 0 24-20 43-44 43z m-32 392h65v-326h-65z m572-478l-426 738c-24 41-66 66-114 66-47 0-90-25-113-66l-426-738c-24-41-24-90 0-131 24-41 66-65 113-65h852c48 0 90 24 114 65 23 41 23 91 0 131z m-57-98c-12-21-33-33-57-33h-852c-23 0-45 12-57 33-12 21-12 45 0 66l426 738c12 20 34 33 57 33 24 0 45-13 57-33l426-738c12-21 12-45 0-66z" horiz-adv-x="1114" />

<glyph glyph-name="check" unicode="&#xe839;" d="M500 850c-276 0-500-224-500-500 0-276 224-500 500-500 276 0 500 224 500 500 0 276-224 500-500 500z m0-77c233 0 423-190 423-423 0-233-190-423-423-423-233 0-422 190-422 423 0 233 189 423 422 423z m202-239c-10 0-20-5-27-12l-236-261-115 116c-15 15-39 16-54 1-15-15-16-40-1-55l143-145c8-8 18-12 28-12h1c10 0 20 5 28 13l263 290c15 16 13 41-2 55-8 7-18 11-28 10z" horiz-adv-x="1000" />

<glyph glyph-name="coupon" unicode="&#xe83a;" d="M418 850c-25 0-51-9-71-27l-295-271c-33-31-52-74-52-119v-481c0-56 46-102 102-102h630c57 0 102 46 102 102v47l176 75c51 22 75 82 53 133-170 497-159 463-159 465-18 41-53 73-95 87-6 2-350 83-360 86-9 3-20 5-31 5z m1-63c3 0 7 0 10-1 13-4-9 14 311-280 20-19 32-46 32-73v-481c0-21-18-39-40-39h-630c-21 0-39 17-39 39v481c0 27 11 54 32 72 252 233 96 88 295 272 8 7 18 11 29 10z m144-34l227-53c25-9 45-28 56-52 170-496 159-463 159-465 9-20 0-43-20-51l-151-65v366c0 45-19 88-52 119z m-144-71c-3 1-7 0-10-1-16-4-25-20-22-36 3-16 19-28 37-25 18 4 28 21 25 37-3 15-16 25-30 25z m-159-200c-54 0-99-50-99-110 0-61 45-110 99-110 55 0 99 49 99 110 0 61-44 110-99 110z m234-17c-12 0-24-7-29-19l-152-364c-9-21 6-44 29-44 12 0 23 7 28 19l153 364c7 16-1 35-17 41-4 2-8 3-12 3z m-234-46c20 0 37-22 37-47 0-26-17-47-37-47-19 0-36 21-36 47 0 25 17 47 36 47z m317-186c-54 0-99-49-99-110 0-60 45-110 99-110 55 0 99 50 99 110 0 61-44 110-99 110z m0-63c20 0 36-22 36-47 0-26-16-47-36-47-20 0-36 21-36 47 0 25 16 47 36 47z" horiz-adv-x="1071" />

<glyph glyph-name="error" unicode="&#xe83b;" d="M671 234l-116 116 116 116c15 15 15 40 0 55-15 15-40 15-55 0l-116-116-116 116c-15 15-40 15-55 0-15-15-15-40 0-55l116-116-116-116c-15-15-15-40 0-55 15-15 40-15 55 0l116 116 116-116c15-15 40-15 55 0 15 15 15 40 0 55z m-171 616c-276 0-500-224-500-500 0-276 224-500 500-500 276 0 500 224 500 500 0 276-224 500-500 500z m0-922c-233 0-422 189-422 422 0 233 189 422 422 422 233 0 422-189 422-422 0-233-189-422-422-422z" horiz-adv-x="1000" />

<glyph glyph-name="info" unicode="&#xe83c;" d="M553 546a53 53 0 0 0-53-53 53 53 0 0 0-53 53 53 53 0 0 0 53 52 53 53 0 0 0 53-52z m-53-431c22 0 39 18 39 39v252c0 21-17 39-39 39-21 0-39-18-39-39v-252c0-21 18-39 39-39z m0-265c276 0 500 224 500 500 0 276-224 500-500 500-276 0-500-224-500-500 0-276 224-500 500-500z m0 922c233 0 422-189 422-422 0-233-189-422-422-422-233 0-422 189-422 422 0 233 189 422 422 422z" horiz-adv-x="1000" />
</font>
</defs>
</svg>
